<?xml version="1.0" standalone="no"?>
<!DOCTYPE svg PUBLIC "-//W3C//DTD SVG 1.1//EN" "http://www.w3.org/Graphics/SVG/1.1/DTD/svg11.dtd" >
<svg xmlns="http://www.w3.org/2000/svg" xmlns:xlink="http://www.w3.org/1999/xlink" version="1.1">
<metadata>
Created by FontForge 20170731 at Tue Jul  8 06:04:21 2014
 By Aleksey,,,
Copyright (c) 2014 by Aitouaissi Rachid. All rights reserved.
</metadata>
<defs>
<font id="Bushcraft-one" horiz-adv-x="230" >
  <font-face 
    font-family="Bushcraft"
    font-weight="700"
    font-stretch="normal"
    units-per-em="1000"
    panose-1="2 0 5 6 0 0 0 2 0 4"
    ascent="750"
    descent="-250"
    x-height="731"
    cap-height="732"
    bbox="-0.6 -137 782 786"
    underline-thickness="50"
    underline-position="-200"
    unicode-range="U+0020-20AC"
  />
<missing-glyph 
 />
    <glyph glyph-name=".notdef" 
 />
    <glyph glyph-name=".null" horiz-adv-x="0" 
 />
    <glyph glyph-name="nonmarkingreturn" horiz-adv-x="333" 
 />
    <glyph glyph-name="space" unicode=" " 
 />
    <glyph glyph-name="exclam" unicode="!" horiz-adv-x="219" 
d="M80 199q-23 0 -39.5 7.5t-16.5 22.5l-14 471q0 10 8 18q18 19 70 19q46 0 62 -12l1 -1q15 -15 6 -95q-2 -18 -2 -21l-11 -370q-1 -19 -19.5 -29t-44.5 -10zM167 111q2 -4 2 -6v-21v-2q-2 -33 -24.5 -56.5t-60.5 -23.5q-33 0 -58 22q-26 24 -26 64q0 35 22.5 60.5
t61.5 25.5q33 0 54.5 -18t28.5 -45z" />
    <glyph glyph-name="quotedbl" unicode="&#x22;" horiz-adv-x="375" 
d="M161 713q0 -1 0.5 -1t0.5 -1q9 -22 -31 -151q-15 -49 -16 -57q-2 -14 -31 -21.5t-50 -7.5q-9 0 -15 2q-10 2 -14 8q-18 28 45 169l2 5q9 21 32 46.5t46 25.5q17 0 27 -13q4 -2 4 -4zM321 713q0 -1 0.5 -1t0.5 -1q9 -22 -31 -151q-15 -49 -16 -57q-2 -14 -31 -21.5
t-50 -7.5q-9 0 -15 2q-10 2 -14 8q-18 28 45 169l2 5q9 21 32 46.5t46 25.5q17 0 27 -13q4 -2 4 -4z" />
    <glyph glyph-name="numbersign" unicode="#" horiz-adv-x="438" 
d="M381 440q8 0 12 -5q5 -5 5 -12v-50q0 -17 -17 -17h-63l-11 -91h54q18 0 18 -17v-50q0 -17 -18 -17h-66l-20 -154q-2 -15 -17 -15h-52q-5 0 -13 6q-4 5 -4 14l20 149h-55l-20 -154q-2 -15 -17 -15h-51q-7 0 -13 6t-4 14l19 149h-50q-8 0 -13 5t-5 12v50q0 7 5 12t13 5h63
l11 91h-54q-7 0 -12 5t-5 12v50q0 7 5 12t12 5h67l20 149q2 15 17 15h50q8 0 12 -6q5 -4 5 -13l-19 -145h54l21 149q2 15 17 15h50q8 0 13 -6t4 -13l-19 -145h51zM233 356h-55l-12 -91h55z" />
    <glyph glyph-name="dollar" unicode="$" horiz-adv-x="403" 
d="M255 400q82 -47 96 -126q2 -2 2 -4v-45q0 -3 -3 -4q-13 -82 -92 -120q-15 -7 -22 -9q-11 -4 -13 -7.5t-2 -21.5q0 -1 0.5 -5.5t0.5 -6.5q2 -36 -7 -48l-1 -1q-12 -9 -40 -9q-20 0 -33 6q-18 7 -18 23v57q-4 2 -20 6q-74 22 -78 24q-14 8 -20.5 28.5t-3.5 40.5q5 33 30 39
q1 0 3 0.5t4 0.5q13 0 57 -19q32 -15 40 -16t22 -1q48 0 69 28q15 25 10 44q-10 35 -100 75q-120 49 -131 135q-8 55 21.5 102t84.5 67q14 5 17 8.5t2 17.5q-1 5 -1 18v6q-2 29 7 38q4 6 14 6q12 8 27 8q21 0 35 -17t14 -39q0 -14 -1 -18q0 -12 1 -14q4 -3 23 -6
q71 -14 82 -36q5 -7 2 -18q3 -28 -12 -46q-16 -16 -38 -16q-13 0 -22 5q-34 15 -75 15q-66 0 -66 -50q0 -19 17 -35.5t33.5 -24t44.5 -18.5q33 -13 40 -17z" />
    <glyph glyph-name="percent" unicode="%" horiz-adv-x="832" 
d="M634 707q5 -12 -2 -22l-379 -669q-9 -16 -47 -16q-45 0 -57 20q-5 9 0 20q0 23 54 99q3 5 7.5 11.5t7.5 11t4 7.5l308 542q9 16 46 16q46 0 58 -20zM607 457q75 0 118.5 -51t53.5 -128q3 -3 3 -6v-82q0 -5 -5 -7q-13 -76 -59 -126.5t-117 -50.5q-82 0 -129.5 66
t-48.5 154q0 92 49 161t135 70zM653 166q18 67 0 133q-6 21 -21 36t-31 15q-21 0 -37 -28v0v0q-21 -39 -21 -93.5t22 -90.5q16 -25 35 -25q16 0 31.5 15.5t21.5 37.5zM364 504q0 -92 -49.5 -161t-134.5 -69q-87 0 -133.5 66.5t-46.5 155.5q0 92 46 156q52 72 138 72
q85 0 136 -69q44 -61 44 -151zM221 407q12 17 9 92t-24 109q-9 16 -21 16q-13 0 -31 -18q-24 -25 -30 -73t4 -87q5 -24 23 -45.5t37 -21.5q20 0 33 28v0z" />
    <glyph glyph-name="ampersand" unicode="&#x26;" horiz-adv-x="682" 
d="M531 172l95 -119q8 -12 4 -22q-14 -29 -122 -29q-35 0 -45 4q-22 1 -57 52q-1 1 -2.5 3.5t-2.5 3.5q-16 -12 -83 -37q-79 -31 -105 -31q-56 0 -104 27t-77 75q-30 50 -31.5 108t26.5 110q11 20 59 53q42 33 46 41q-79 124 -31 221q23 46 66.5 72t98.5 26q69 0 126 -41.5
t67 -113.5q15 -107 -99 -193q4 -14 46 -59q3 -3 7 -7.5t6 -6.5q1 2 5 8q15 20 22 28.5t21.5 20t26.5 11.5t21 -9q1 -1 15 -13q57 -43 60 -72q1 -12 -8 -23q-6 -7 -21 -22q-16 -16 -23.5 -25t-11.5 -21t5 -20zM221 294q-49 -44 -49 -75q0 -63 46 -63q40 0 83 36q-3 17 -63 83
q-12 14 -17 19zM273 495q36 25 36 58q0 16 -10.5 31t-24.5 15q-12 0 -22 -10q-27 -27 21 -94z" />
    <glyph glyph-name="quotesingle" unicode="'" horiz-adv-x="215" 
d="M161 713q0 -1 0.5 -1t0.5 -1q9 -22 -31 -151q-15 -49 -16 -57q-2 -14 -31 -21.5t-50 -7.5q-9 0 -15 2q-10 2 -14 8q-18 28 45 169l2 5q9 21 32 46.5t46 25.5q17 0 27 -13q4 -2 4 -4z" />
    <glyph glyph-name="parenleft" unicode="(" horiz-adv-x="265" 
d="M210 36v-1q7 -10 3 -18q-11 -20 -58 -20q-31 0 -39 12q-77 98 -102 224q-25 125 -2.5 247t89.5 220q9 12 32.5 23.5t43.5 11.5q23 0 34 -17q9 -17 -35 -82q-14 -20 -16 -25q-28 -59 -39 -116q-25 -119 -3.5 -236.5t85.5 -212.5q5 -7 7 -10z" />
    <glyph glyph-name="parenright" unicode=")" horiz-adv-x="265" 
d="M6 36q2 3 7 10q64 94 85 212t-4 237q-12 61 -38 116q-9 15 -17 25q-44 65 -35 82q11 17 35 17q20 0 43.5 -11.5t32.5 -23.5q66 -98 88.5 -219.5t-2.5 -247.5q-25 -125 -101 -224q-10 -12 -39 -12q-48 0 -59 20q-3 11 3 18z" />
    <glyph glyph-name="asterisk" unicode="*" horiz-adv-x="394" 
d="M333 650q2 -2 2 -3q8 -11 8.5 -37.5t-7.5 -42.5q-6 -13 -17 -13q-1 0 -2 1q-5 -3 -15 -3q-6 0 -51 8q-1 0 -3.5 1t-3.5 1q1 -2 4 -5.5t5 -5.5q38 -40 34 -60q-3 -19 -30 -35q-19 -11 -33 -11q-13 0 -23 10.5t-14.5 19.5t-12.5 32q-1 5 -5 15q-3 -8 -4 -10
q-24 -71 -54 -71q-10 0 -20 7q-34 22 -37 43q-3 20 32 60q1 2 4.5 6t5.5 6q-2 -1 -6.5 -1.5t-6.5 -0.5q-28 -6 -40 -6q-20 0 -31 11q-12 12 -12 39q0 50 43 50q10 0 40 -6q2 -1 6 -1t6 -1q-1 2 -4 5.5t-5 4.5q-38 42 -34 64q3 18 29 33q19 11 32 11q14 0 24.5 -10t15 -20.5
t12.5 -31.5q1 -5 5 -15q4 10 5 15q7 20 12 31t15.5 21.5t24.5 10.5t31 -10q26 -15 29 -34q4 -22 -35 -65q-2 -1 -5 -4.5t-4 -5.5q1 0 3 0.5t4 0.5q38 9 56 9q16 0 25 -6q1 0 1 -1h1z" />
    <glyph glyph-name="plus" unicode="+" horiz-adv-x="394" 
d="M387 413q0 -2 0.5 -6t0.5 -6q0 -30 -8 -38q-7 -8 -23 -8h-114q-3 0 -5 -2q-8 -9 -2 -71q6 -68 -6 -80q-3 -4 -11 -6q-14 -8 -26 -8t-22 10q-23 25 -15 128q1 9 1 22q0 10 -28 10q-19 0 -42 -3q-5 0 -14 -1t-16 -1.5t-13 -0.5q-18 0 -26 4q-11 4 -13 15q-10 22 1 42
q10 18 29 18h115q3 0 5 2q8 10 2 70q-6 67 5 80q5 5 12 5q31 17 48 -1q23 -25 15 -128q-1 -8 -1 -20q0 -11 28 -11q7 0 23 1.5t19 1.5q5 0 14 1t16 1.5t13 0.5q38 0 38 -21z" />
    <glyph glyph-name="comma" unicode="," horiz-adv-x="232" 
d="M177 127v-1q21 -37 -68 -206q-2 -5 -6 -11q-6 -12 -27.5 -20.5t-42.5 -8.5q-22 0 -30 11q-5 8 -1 18q13 36 31 109q2 6 4 28q9 65 22 77q18 16 80 16q25 0 33 -7q2 0 5 -5z" />
    <glyph glyph-name="hyphen" unicode="-" horiz-adv-x="375" 
d="M312 445q10 -9 12 -46q2 -29 -3 -44q-1 -28 -50 -28q-17 0 -23 1q-3 0 -7 0.5t-5 0.5q-7 0 -47 -4q-58 -6 -97 -6q-61 0 -79 18q-10 10 -12 46q-2 30 4 44q2 28 50 28q4 0 12 -0.5t11 -0.5q2 0 6 -0.5t5 -0.5q7 0 47 4q58 6 97 6q61 0 79 -18z" />
    <glyph glyph-name="period" unicode="." horiz-adv-x="181" 
d="M65 127q27 0 46.5 -17.5t19.5 -49.5q0 -30 -19.5 -47.5t-46.5 -17.5q-26 0 -45.5 17.5t-19.5 47.5q0 31 19.5 49t45.5 18z" />
    <glyph glyph-name="slash" unicode="/" horiz-adv-x="487" 
d="M428 754q13 -8 7 -19l-336 -780q-4 -6 -8 -7q-2 -1 -6 -1t-6 1l-70 32q-12 5 -7 18l336 779q2 6 8 8t11 0z" />
    <glyph glyph-name="zero" unicode="0" horiz-adv-x="554" 
d="M317 172q46 52 46 186q0 110 -29.5 170.5t-82.5 60.5q-55 0 -84 -67t-29 -159q0 -39 4.5 -74t16 -70.5t35 -56.5t56.5 -21q42 0 67 31zM249 731q133 0 201 -124q54 -99 54 -241q0 -144 -54 -242q-69 -123 -203 -123q-133 0 -198 125q-49 98 -49 241q0 169 65.5 266.5
t183.5 97.5z" />
    <glyph glyph-name="one" unicode="1" horiz-adv-x="310" 
d="M256 135q0 -5 2 -23q5 -80 -13 -97q-13 -14 -49 -14q-5 0 -15.5 0.5t-15.5 0.5q-16 2 -20 2q-39 0 -39 49v179v244v15q5 77 -2 88q-2 0 -6.5 -0.5t-7.5 -0.5q-9 -1 -27 -1q-40 0 -54 15q-9 9 -9 25q1 22 35 69q10 14 14 20q17 27 81 27q29 0 56 -3q26 -2 33 -2
q15 0 24 -10q19 -20 14 -96q0 -4 -0.5 -10t-0.5 -8v-238v-231z" />
    <glyph glyph-name="two" unicode="2" horiz-adv-x="582" 
d="M490 148q20 0 31 -21.5t11 -49.5q0 -29 -11 -51q-14 -25 -38 -25h-172h-219q-79 0 -90 25q-7 16 14 40l247 267l23 23q63 65 77 103q16 44 -4 82q-18 33 -58 43q-13 3 -25 3q-35 0 -62 -23.5t-35 -62.5q-2 -10 -2 -15q-2 -16 -4 -24.5t-11 -18t-24 -9.5q-8 -2 -14 -2
q-3 0 -8.5 0.5t-7.5 0.5t-6 0.5t-6 0.5q-6 0 -10 -1h-11q-25 0 -37 12q-19 20 -4 84q0 1 1 3.5t1 3.5q20 90 91 146q66 52 152 52q121 -2 192 -91q28 -35 39 -73.5t11 -70.5t-16.5 -71.5t-32 -66.5t-47.5 -66.5t-50.5 -59t-53.5 -56.5q-5 -5 -14.5 -15.5t-14.5 -15.5h198z
" />
    <glyph glyph-name="three" unicode="3" horiz-adv-x="546" 
d="M410 410q64 -49 81 -129.5t-22 -151.5q-35 -64 -100 -98t-140 -30q-100 5 -163 75q-27 32 -49.5 79.5t-14.5 78.5q2 10 10 16t21 8t23.5 2t25 -1t18.5 -1q17 0 28.5 -13.5t17.5 -30.5t16 -36t22 -27q58 -38 119 0q49 30 57 79q7 57 -53 86q-13 6 -49 9.5t-59 13t-23 33.5
q0 4 -1 22.5t-1 29t5.5 23t15.5 17.5q9 4 50.5 10t61.5 21.5t13 50.5q-5 28 -30.5 42t-55.5 9.5t-47 -25.5q-6 -7 -14.5 -27.5t-19 -33.5t-25.5 -13h-38q-43 0 -58 13.5t-1 56.5q32 97 120.5 142t182.5 5q44 -18 75.5 -55t44.5 -79.5t2.5 -89t-46.5 -81.5z" />
    <glyph glyph-name="four" unicode="4" horiz-adv-x="584" 
d="M495 293q13 0 25 -10q17 -19 12 -78v-16q0 -19 -11 -31t-29 -12q-6 0 -10 1q-4 0 -11 0.5t-10 0.5t-7 -1h-1q-6 -10 1 -68q1 -9 1 -21q0 -59 -48 -59h-15q-8 -1 -25 -1q-60 0 -60 38q-4 14 -2 60q2 18 2 26v13v10q-2 1 -15 1h-98h-118q-8 0 -12 -1h-15q-26 0 -37 10
t-12 23t7.5 28.5t15.5 25.5t19 25q8 10 11 14l262 372q5 7 12 18q40 70 73 70q27 0 42 -15q18 -19 14 -82q0 -5 -0.5 -13.5t-0.5 -12.5v-236v-78q0 -4 11 -4q6 0 16 2q3 0 7 0.5t6 0.5zM307 376l-27 -38l-32 -46h5q16 -2 29 -2q25 0 25 6v80z" />
    <glyph glyph-name="five" unicode="5" horiz-adv-x="551" 
d="M264 511q99 0 167 -71q75 -78 69 -195q-5 -105 -80 -175.5t-182 -70.5q-111 0 -178 78q-19 21 -42 67.5t-16 77.5q4 21 22 28q16 7 49 7q28 0 43 -3q29 -1 42 -46q5 -16 10 -24q26 -39 74 -39q49 0 77.5 35.5t28.5 81.5q0 44 -24 71q-26 31 -74 31q-44 0 -100 -20
q-1 0 -3 -1t-4.5 -2t-4.5 -1q-26 -11 -38 -11q-20 0 -30 18q-9 16 0 49q2 8 2 10q14 75 42 223l3 21q3 25 7 39t17.5 27.5t37.5 13.5h215q2 0 7.5 0.5t9.5 0.5q7 1 21 1q20 0 30 -5q29 -12 24 -83q-1 -6 -1 -16q0 -48 -91 -48q-33 0 -57 3q-6 0 -15.5 0.5t-12.5 0.5
q-1 0 -4.5 0.5t-6.5 0.5t-12 0.5t-14 0.5q-6 0 -10.5 -0.5t-6.5 -1.5h-2q-2 -12 -6.5 -37t-6.5 -37q8 1 24 1z" />
    <glyph glyph-name="six" unicode="6" horiz-adv-x="516" 
d="M271 460q78 -8 133 -69q67 -75 61 -177q-5 -90 -73.5 -152t-162.5 -62q-2 0 -6.5 0.5t-7.5 0.5q-93 5 -156 76q-64 74 -58 170q2 38 18 79t31.5 66t44.5 68l5 8l81 121l40 59q4 6 12 20q11 20 19 31t22 22t28 11t26 -8q2 -1 6.5 -3.5t7.5 -4.5q18 -10 27.5 -16t19.5 -19
t8 -27q-3 -15 -25 -44q-8 -10 -10 -14l-55 -83zM317 233q0 36 -21 60q-22 27 -63 27q-40 0 -64 -27q-21 -26 -21 -60q0 -35 22 -61.5t63 -26.5t62.5 26.5t21.5 61.5z" />
    <glyph glyph-name="seven" unicode="7" horiz-adv-x="537" 
d="M451 732q23 0 32 -14q11 -19 -16 -73q-1 -2 -3 -4l-199 -384l-47 -89l-47 -91q-1 -1 -2 -4t-2.5 -5.5t-2.5 -4.5q-9 -19 -14 -29t-17 -21.5t-25 -11.5q-10 0 -18 5q-2 1 -7.5 3t-8.5 4q-16 7 -23 11t-19.5 12t-17.5 17.5t-4 20.5q1 9 12 29q0 1 1 2.5t2 2.5t1 2l88 170
l88 169l72 137h-213q-32 0 -46 13.5t-14 45.5v13q-2 48 12 63q11 11 28 11h410z" />
    <glyph glyph-name="eight" unicode="8" horiz-adv-x="503" 
d="M410 399q60 -43 79.5 -112t-6.5 -139q-27 -70 -92 -108.5t-143 -38.5q-80 0 -145 40.5t-90 112.5q-24 69 -2.5 136t80.5 109q-42 37 -55.5 83.5t1 89t44.5 79t75.5 58.5t94.5 22q61 0 114.5 -34t81.5 -83t21 -109t-58 -106zM189 577q-41 -36 -11 -77q25 -35 71 -38
q36 -2 60 20q44 41 12 81q-26 33 -74 34q-34 1 -58 -20zM309 482zM304 478zM331 163q53 50 21 105q-27 44 -84 55q-66 13 -108 -36q-43 -50 -15 -97t84 -53.5t102 26.5z" />
    <glyph glyph-name="nine" unicode="9" horiz-adv-x="513" 
d="M413 650q116 -141 -37 -369l-78 -117l-78 -116q0 -1 -1 -2.5t-2 -2.5t-1 -2q-26 -40 -48 -40q-15 0 -29 10q-4 2 -14 8q-48 27 -53 49q-3 15 7 31l61 93l56 84q-50 4 -92.5 32t-69.5 74q-31 52 -33.5 112t23.5 112q29 58 87 92.5t125 34.5q86 0 148 -54q2 0 16 -14
q11 -11 13 -15zM233 588q-41 0 -63 -26t-22 -61q0 -34 21 -60q24 -27 64 -27q41 0 62.5 26t21.5 61q0 36 -21 60q-22 27 -63 27z" />
    <glyph glyph-name="colon" unicode=":" horiz-adv-x="232" 
d="M91 555q35 0 62.5 -24t28.5 -67q0 -43 -27.5 -67.5t-64.5 -24.5q-36 0 -63 24t-27 67t27.5 67.5t63.5 24.5zM181 106q0 -8 1 -13v-1v0q0 -10 -1 -13v0q0 -5 -1 -7q-7 -35 -33 -53t-57 -18q-36 0 -61 22q-29 26 -29 68q0 43 27.5 67.5t63.5 24.5q30 0 55.5 -18t32.5 -53
q2 -2 2 -6z" />
    <glyph glyph-name="semicolon" unicode=";" horiz-adv-x="189" 
d="M111 410q29 0 51 -19t22 -55q0 -35 -22 -54.5t-52 -19.5q-29 0 -51 19.5t-22 54.5t22 54.5t52 19.5zM177 110v-1q21 -37 -68 -206q-3 -7 -6 -12q-6 -12 -27.5 -20t-42.5 -8q-23 0 -30 10q-5 10 -1 19q12 34 31 108q2 8 4 29q9 65 22 76q17 17 80 17q25 0 33 -7q2 -1 5 -5
z" />
    <glyph glyph-name="less" unicode="&#x3c;" horiz-adv-x="472" 
d="M423 103q9 -5 9 -15v-59q0 -10 -8 -15q-3 -2 -9 -2q-5 0 -8 2l-398 204q-9 5 -9 16v46q0 10 9 15l398 205q9 5 17 0q8 -6 8 -15v-59q0 -12 -9 -15l-307 -154z" />
    <glyph glyph-name="equal" unicode="=" horiz-adv-x="490" 
d="M319 509q113 0 115 -23q13 -22 0 -45q-11 -22 -36 -22h-143q-12 0 -24 -1q-78 -3 -110 -3q-115 0 -115 24q0 9 -1 13q0 35 9 44t28 9h143q12 0 24 1q78 3 110 3zM429 351q20 -20 5 -55q-10 -24 -30 -24h-298q-2 0 -8 -0.5t-10 -0.5q-33 -3 -38 -3q-29 0 -38 10
q-21 20 -7 55q11 25 31 25h298q12 0 21 1q20 2 34 2q26 0 38 -8l1 -1v0h1v-1z" />
    <glyph glyph-name="greater" unicode="&#x3e;" horiz-adv-x="472" 
d="M423 296q9 -4 9 -15v-48q0 -11 -9 -15l-398 -204q-2 -2 -8 -2t-9 2q-8 5 -8 15v59q0 10 10 15l309 154l-309 154q-10 3 -10 15v59q0 9 8 15q9 5 17 0z" />
    <glyph glyph-name="question" unicode="?" horiz-adv-x="400" 
d="M160 738q71 0 125.5 -40.5t62.5 -109.5q4 -38 -9.5 -76t-32.5 -63.5t-46 -61.5t-40 -62q-10 -21 -11.5 -59.5t-14 -55t-55.5 -12.5q-30 3 -44.5 20t-13 42.5t8.5 50.5t19 50q11 23 39.5 60t47.5 71t19 68q0 36 -26.5 52t-60 12.5t-59.5 -18.5q-21 -12 -36 -4t-24 24.5
t-8.5 37t12.5 33.5q37 41 147 41zM144 162q30 0 50.5 -17t25 -41t-0.5 -48.5t-25 -42t-50 -18.5q-36 0 -57 26t-21 57.5t20.5 57.5t57.5 26z" />
    <glyph glyph-name="at" unicode="@" horiz-adv-x="721" 
d="M579 621q92 -84 92 -216q0 -69 -23.5 -125t-65.5 -88q-45 -36 -101 -36q-62 0 -88 51q-49 -51 -119 -51q-76 0 -110 65q-37 66 -11 146q16 50 50.5 91.5t78.5 63.5q17 8 61 16.5t83 8.5q64 0 84 -24q11 -14 7 -33q-6 -36 -10 -54q-14 -72 -20 -108q-9 -48 1 -65
q3 -3 8 -3q16 0 38 27t28 61q13 71 -10 138t-85 99q-53 27 -105 27q-102 0 -179 -87.5t-77 -204.5q0 -70 30.5 -124.5t84.5 -81.5q56 -27 132 -21q6 1 39 11q44 16 68 16q25 0 31 -18l3 -7q12 -21 9 -38.5t-34 -30.5q-67 -30 -156 -30q-80 0 -148.5 35.5t-109.5 98.5
q-45 69 -53 153t23 169t93.5 147.5t142.5 86.5q54 16 104 16q127 0 214 -81zM400 446q-4 1 -12 1q-54 0 -92 -42.5t-38 -101.5q0 -45 23 -45q25 0 61.5 37t41.5 69z" />
    <glyph glyph-name="A" unicode="A" horiz-adv-x="533" 
d="M305 716q122 -473 161 -629q1 -2 5.5 -15.5t7 -22t4 -21.5t-3.5 -16q-10 -13 -74 -11.5t-68 17.5q-13 12 -14.5 69t-15.5 67q-8 5 -64 5t-64 -5q-15 -10 -16.5 -67t-14.5 -69q-4 -16 -68 -17.5t-74 11.5q-12 15 -0.5 65.5t33.5 112.5t23 67l99 384q0 1 3 21.5t7 34.5
t9 19q4 16 62.5 16t62.5 -16zM278 279l-36 164q-6 -28 -18 -82.5t-18 -81.5h72z" />
    <glyph glyph-name="B" unicode="B" horiz-adv-x="453" 
d="M343 58q-21 -20 -46 -32t-60 -16.5t-55 -5.5t-64.5 0t-55.5 1q-42 0 -52 8.5t-10 47.5v471v171q0 12 9.5 19t25 8t30.5 0.5t32 -2t22 -1.5q49 0 76 -2t67.5 -10t68.5 -29.5t46 -55.5q20 -38 24 -85t-12 -92t-51 -69q66 -48 64.5 -159t-59.5 -167zM145 325v-127
q0 -11 -0.5 -25t-1 -17.5t3.5 -9t10 -6.5t21 -4q39 0 60 22t22 54t-4 67q-2 9 -6.5 16.5t-9 12.5t-13.5 8.5t-14.5 5t-17.5 2.5t-16.5 1h-18h-15.5zM243 463q43 54 2 104q-28 34 -66 36q-34 2 -34 -30v-125q3 -6 23 -5t45 7.5t30 12.5z" />
    <glyph glyph-name="C" unicode="C" horiz-adv-x="464" 
d="M73 39q-26 19 -42.5 46t-21.5 64.5t-6 64t1 72.5t2 62q0 19 -3 73.5t-3 88.5t9 78t29 71q46 60 130.5 73t148.5 -27q39 -23 76 -88.5t10 -101.5q0 -9 -11 -14t-28 -5.5t-33 -0.5t-32.5 1.5t-19.5 1.5q-12 0 -17.5 11t-6 25.5t-3.5 30t-9 22.5q-72 81 -88 -78
q-4 -37 -4 -135q0 -9 -3 -44.5t-3 -64.5t3.5 -61.5t17 -51.5t37.5 -19q25 0 37 16t13 35.5t5 35.5t16 16q8 5 56.5 5t56.5 -5q36 -9 8 -85.5t-49 -96.5q-54 -48 -134 -52.5t-139 37.5z" />
    <glyph glyph-name="D" unicode="D" horiz-adv-x="460" 
d="M346 54q-24 -20 -54 -32.5t-67.5 -16t-64.5 -4t-72 1t-63 1.5q-10 0 -16 10.5t-7.5 28t-1 33t2 32.5t1.5 21v556q0 20 6.5 31.5t21 15t26.5 4t34.5 -1.5t33.5 -2q54 0 93 -5t82 -20t69.5 -49.5t33.5 -86.5q5 -36 5.5 -77.5t-1.5 -94.5t-2 -78q0 -12 1 -45t0.5 -50.5
t-3 -46.5t-9 -48t-19 -40.5t-30.5 -36.5zM259 201v294q0 2 0.5 18t0 20.5l-2 18t-4.5 19t-8 14t-13 12.5t-19 6q-31 8 -46.5 4.5t-15.5 -31.5v-341v-103q4 -2 28 -1t52 20.5t28 49.5z" />
    <glyph glyph-name="E" unicode="E" horiz-adv-x="428" 
d="M22 10q-8 0 -12.5 9.5t-5.5 24.5t-0.5 28.5t1.5 28t1 16.5v483q0 4 -3 34t-2 53t9 31q10 10 41 11.5t71 -2.5t45 -4q11 0 55.5 4.5t80.5 4.5t51 -9q13 0 18.5 -31t0 -62t-20.5 -31h-200q-3 0 -3 -164q0 -4 174 -4q15 0 21 -31t0.5 -62t-18.5 -31q-18 -12 -90.5 2
t-86.5 -2q-5 -5 -5 -83.5t5 -83.5q11 -10 50 -10t88 5t57 5q27 0 33 -55t-11 -70q-12 -12 -47 -13t-80 3.5t-51 4.5h-166z" />
    <glyph glyph-name="F" unicode="F" horiz-adv-x="425" 
d="M21 4q-9 0 -14 63t-6 161t0 189.5t2.5 178.5t1.5 97q0 17 24 26.5t63 10.5t75.5 0t74 -4t46.5 -3q7 0 23 1t24 1t18.5 -3t15 -11.5t4.5 -22.5q0 -9 0.5 -26.5t0.5 -23.5t-2.5 -16.5t-8.5 -14t-16.5 -6.5t-26.5 -3q-170 0 -170 -3v-170q0 -3 167 -3q25 0 33 -45t-6 -63
q0 -9 -15 -14.5t-39 -6t-46 0t-44.5 2t-25.5 1.5q-13 0 -19.5 -6t-8 -17.5t-1 -22.5t2.5 -26.5t2 -24.5v-178q0 -10 -11 -15t-28.5 -6t-34 -0.5t-34 2t-21.5 1.5z" />
    <glyph glyph-name="G" unicode="G" horiz-adv-x="475" 
d="M75 44q-30 23 -48 61.5t-22 88t-4 90.5t3.5 96.5t3.5 78.5q0 9 -0.5 33t0 37t2 32.5t6 36t11.5 30.5q29 55 88.5 82t124 20t113.5 -44q21 -16 49 -80q42 -94 7 -108q-4 -2 -11 -2q-11 0 -32 -2t-34.5 -2t-28 3t-22 13.5t-7.5 29.5q0 38 -30 54.5t-60 1t-30 -53.5v-186
q0 -16 -3 -53t-3 -66.5t6 -51.5q0 -38 38 -50t66 11q6 5 10 11.5t5 15.5t1.5 15.5t0 17.5t-0.5 15q0 2 0.5 12.5t1 20.5t0 21t-2 17.5t-4.5 6.5q-5 0 -21 -2t-28.5 -2t-18.5 4q-13 0 -19 29.5t0 59.5t22 30h188q13 0 20.5 -8.5t9 -23t1 -28.5t-2 -31t-1.5 -23q0 -13 1.5 -48
t1 -55.5t-5.5 -48.5t-15 -48q-29 -55 -88.5 -82t-124 -20t-113.5 44z" />
    <glyph glyph-name="H" unicode="H" horiz-adv-x="455" 
d="M21 6q-10 0 -15 58t-5.5 148.5t0.5 174.5t2.5 163t1.5 87q0 4 -1 17.5t-1.5 25t1 24t7 20t15.5 7.5q8 0 27.5 2t34 2t30.5 -2t24.5 -10.5t8.5 -24.5v-234q0 -29 44 -39.5t64 9.5q9 8 9 50t-4.5 94t-4.5 58q0 10 -1 27t-1 24.5t2.5 18t8 14.5t16 7.5t27.5 3.5q8 0 29.5 1
t28 0t18 -5t15 -14.5t3.5 -27.5v-189v-453q0 -16 -7 -25.5t-20.5 -12t-25.5 -2.5t-31 1.5t-28 1.5q-16 0 -25 8t-11 23t-2 28.5t2 32.5t2 27q0 3 0.5 26.5t0.5 48.5v52t-1.5 44.5t-4.5 17.5q-15 0 -35.5 2t-30 2.5t-19.5 -3t-14 -15t-4 -31.5v-238q0 -12 -10 -19t-27.5 -8.5
t-33.5 -1t-34.5 2t-24.5 1.5z" />
    <glyph glyph-name="I" unicode="I" horiz-adv-x="206" 
d="M22 3q-10 0 -15 41.5t-5.5 105.5t0.5 124t2.5 115t1.5 60v238q0 34 51.5 45t77.5 -8q10 0 15 -41.5t5.5 -105.5t-0.5 -124t-2.5 -115t-1.5 -60v-238q0 -17 -8.5 -27t-24.5 -12.5t-30.5 -2t-35 2.5t-30.5 2z" />
    <glyph glyph-name="J" unicode="J" horiz-adv-x="416" 
d="M59 23q-56 32 -58 50t44 50q27 19 39.5 21t32 -5.5t44.5 -7.5q22 0 36.5 11t19 33.5t6 38t0 46t-1.5 35.5q0 7 -2 62t-3 112t-0.5 118.5t7.5 101t19 39.5q13 0 32 1.5t30 2t24.5 -1.5t20.5 -7.5t12 -17.5t5 -30v-280v-209q0 -54 -30.5 -98.5t-76.5 -66t-100 -24.5
t-100 26z" />
    <glyph glyph-name="K" unicode="K" horiz-adv-x="518" 
d="M465 9q-6 -10 -29 -12t-55.5 1t-34.5 3q-10 0 -16.5 2t-11.5 8.5t-7 10t-6.5 15t-5.5 14.5q-10 23 -100 239q-22 -35 -31.5 -66t-10.5 -51t-1 -75q0 -27 -0.5 -41.5t-5.5 -27t-8 -17t-18 -8t-24.5 -3.5h-37.5h-18q-20 0 -30.5 29.5t-12 77t0 92t4.5 89.5t3 55
q0 5 -2 53.5t-3 100t0 106.5t7.5 90t19.5 35q14 0 36 1t32 1.5t23.5 -2t19 -9.5t10 -20.5t4.5 -34.5v-207q2 3 36 82t65.5 134t51.5 55q17 8 74 3q59 -5 55 -25l-2 -4q-25 -44 -75 -134q-5 -9 -26 -38.5t-35 -55t-14 -41.5q-1 -14 8.5 -35.5t25 -49.5t18.5 -33
q30 -70 92 -208l14 -26q14 -25 20.5 -44.5t0.5 -28.5z" />
    <glyph glyph-name="L" unicode="L" horiz-adv-x="433" 
d="M22 2q-10 0 -15 56t-6 143t0 168t2.5 157t1.5 83q0 13 -0.5 34.5t-0.5 29t1.5 21t5 17.5t10 11t17.5 8.5t25.5 3t36.5 1.5q25 0 39 -11.5t17.5 -33.5t3 -42t-3.5 -49.5t-3 -44.5v-371q0 -7 -1 -17t-1 -14t2 -8.5t7 -6t15 -1.5h167q16 0 25.5 -5.5t12 -17t3 -21t-1 -27
t-1.5 -26.5q0 -7 -0.5 -12t-2.5 -9t-3 -7t-5.5 -4.5t-6 -2.5t-8 -1.5t-8 -0.5h-10h-10.5h-304z" />
    <glyph glyph-name="M" unicode="M" horiz-adv-x="604" 
d="M533 734q10 0 15 -61.5t5.5 -158t-0.5 -186t-2.5 -173.5t-1.5 -94v-12.5v-12.5t-1 -10t-3 -9.5t-5.5 -6t-10 -4.5t-14.5 -1q-5 0 -21.5 -1.5t-30.5 -2t-29 0.5t-23.5 7.5t-8.5 18.5v332q-5 -14 -14.5 -47.5t-18.5 -61.5t-22 -58t-31.5 -47t-40.5 -17t-40.5 17t-31.5 46.5
t-22 57.5t-18 62t-14 47v-244q0 -71 -4 -83q-8 -22 -49 -26q-15 -1 -42 -1q-17 0 -27.5 3.5t-16 7.5t-8 14.5t-2.5 18t1 24t1 26.5v292v275q0 49 13 58.5t64 9.5h14q26 0 44.5 -16t26 -33t18 -51.5t15.5 -46.5q13 -33 39 -98.5t39 -98.5q19 48 53.5 134.5t46.5 118.5
q8 21 15 34t12 24t15 16.5t15.5 9.5t22 5t25.5 1.5t35 0.5h18z" />
    <glyph glyph-name="N" unicode="N" horiz-adv-x="489" 
d="M417 730q10 0 15 -62.5t6 -160.5t0 -188.5t-2.5 -176.5t-1.5 -96q0 -38 -33 -50t-70.5 2.5t-49.5 44.5l-132 315v-253v-17v-35t-3.5 -23t-8 -16.5t-16.5 -8t-26.5 -5t-40.5 -0.5q-17 0 -27.5 3.5t-16 7.5t-8 14.5t-2.5 18t1 24t1 26.5v293v275q0 49 12.5 58.5t62.5 9.5
h16q21 0 36.5 -8.5t26 -25.5t16.5 -32.5t14 -40t13 -37.5q46 -114 88 -215v272q0 2 -1 14t-1.5 23t0.5 23t5.5 19.5t12.5 7.5q9 6 31 6t49 -3t34 -3z" />
    <glyph glyph-name="O" unicode="O" horiz-adv-x="476" 
d="M351 688q30 -23 48 -61.5t22 -87.5t4 -90t-3.5 -96t-3.5 -78q0 -6 0.5 -40t0 -48t-5.5 -38.5t-14 -42.5q-29 -55 -88 -81.5t-123.5 -19.5t-112.5 44q-30 23 -48 61.5t-22 87.5t-4 90t3.5 96t3.5 78q0 9 -0.5 33t0 37t2 32.5t6 35.5t11.5 30q28 55 87.5 82t124 20
t112.5 -44zM273 550q0 34 -30 47.5t-60 -1t-30 -48.5v-105q0 -24 -4.5 -79t-4.5 -99.5t9 -76.5q0 -21 12.5 -34.5t30 -17t35 0t30 17.5t12.5 35v106v255z" />
    <glyph glyph-name="P" unicode="P" horiz-adv-x="463" 
d="M350 680q39 -36 54 -97t6 -120.5t-43.5 -109.5t-87.5 -67q-7 -3 -40.5 -5.5t-61.5 -6t-28 -9.5v-120v-126q0 -8 -5.5 -13t-15.5 -6t-19 -1t-20 1t-14 1q-55 0 -64.5 12t-9.5 69v570v19v16.5t0.5 12.5t2 11.5t4.5 8t7.5 6.5t11.5 3.5t15.5 3t20.5 0.5q14 0 57 1.5
t65.5 0.5t56.5 -5.5t60.5 -17t47.5 -32.5zM264 456q1 34 2.5 67t-17 58t-57.5 25q-14 1 -22 -0.5t-13.5 -2.5t-7 -7t-1.5 -10.5t0.5 -17.5t0.5 -22v-142q4 -4 29 -4t54.5 15.5t31.5 40.5z" />
    <glyph glyph-name="Q" unicode="Q" horiz-adv-x="529" 
d="M473 75q5 -4 6 -9.5t-3 -12.5t-9 -14t-12.5 -14.5t-13.5 -13t-12 -10.5t-8 -7q-7 -7 -15 -7.5t-17 4t-16 10t-16 13t-13 10.5t-23 -2.5t-41 -14t-28 -9.5q-56 -6 -107 10q-44 14 -78 44.5t-47 72.5q-17 55 -19 127t4.5 165t6.5 130q0 57 31 101t78 65t102.5 21t103.5 -25
q60 -31 79.5 -83t19.5 -130v-261q0 -70 -3 -87q-2 -10 -2.5 -17.5t1.5 -13t4 -9t7.5 -8t10.5 -7t13.5 -8t15.5 -10.5zM180 163q5 5 16.5 19t19.5 21.5t19 15t22 6t22 -12.5v243q0 9 2 29t2 36.5t-4 28.5q0 27 -24.5 43t-53.5 11t-39 -30q-12 -29 -13 -71.5t4 -96t5 -72.5
q0 -7 -2.5 -45.5t-2.5 -64t8.5 -53.5t27.5 -36q-9 4 -12 12t3 17z" />
    <glyph glyph-name="R" unicode="R" horiz-adv-x="498" 
d="M329 330q78 -200 117 -301q4 -11 -6 -17t-29.5 -7.5t-37 -1.5t-37 1t-21.5 1q-12 0 -23 17t-17 35.5t-12.5 42.5t-7.5 28q-10 28 -30.5 85t-30.5 86q-2 6 -21.5 5t-19.5 -11v-71v-192q0 -12 -9.5 -19t-26.5 -8.5t-32 -1t-33 2t-24 1.5q-12 0 -19 61t-7.5 156t0.5 184
t3 173.5t2 95.5q0 3 -0.5 12.5t0 13.5t1.5 11t4 10.5t9 6t14 2.5h171q75 0 131.5 -34t75.5 -103q12 -50 10.5 -99t-26 -94.5t-68.5 -70.5zM153 605v-123q0 -9 -0.5 -22t-0.5 -17t1.5 -10t6.5 -7.5t12.5 -2.5t21.5 -1q52 0 69 29.5t13 85.5q-1 21 -9 35t-20 20.5t-27.5 10
t-32 3t-34.5 -0.5z" />
    <glyph glyph-name="S" unicode="S" horiz-adv-x="481" 
d="M366 680q28 -25 53.5 -88t-1.5 -90q-8 -8 -31 -9t-53.5 2t-35.5 3q-15 0 -21 16.5t-7.5 36t-15 36t-40.5 16.5q-41 0 -55.5 -32t0.5 -68.5t48 -48.5q14 -6 69.5 -24.5t81.5 -37.5q88 -63 60 -230q-10 -62 -56.5 -104t-104 -53.5t-119 7t-99.5 67.5q-16 21 -32 77
q-21 79 17 79q5 0 35.5 3t53 1.5t31.5 -9.5q12 -12 15.5 -33t4 -36t17 -23.5t53.5 -2.5q36 5 45.5 63t-11.5 85q-11 16 -40 28t-65.5 22t-49.5 16q-104 49 -104 180q0 66 37 117.5t90.5 73t117 13t112.5 -52.5z" />
    <glyph glyph-name="T" unicode="T" horiz-adv-x="470" 
d="M398 732q18 0 21 -55t-10 -66q-6 -6 -39 -6t-58 2t-30 -2v-292v-201q0 -5 2.5 -27t2.5 -39.5t-5 -24.5q0 -17 -60 -21t-70 4q-7 0 -11 5t-5.5 14t-1.5 16.5t1 17t1 11.5v393v135q0 6 -8 9.5t-21 3.5t-26 -0.5t-26 -1.5t-17 -1q-15 0 -24 6.5t-11 19.5t-2 24.5t1.5 29
t1.5 25.5q0 10 6.5 15.5t17.5 6.5t20.5 1t22.5 -1t17 -1h310z" />
    <glyph glyph-name="U" unicode="U" horiz-adv-x="459" 
d="M387 729q10 0 15 -35t6 -89.5t0 -105t-2.5 -98t-1.5 -51.5v-167q0 -50 -26 -91t-67 -61.5t-89.5 -27t-93.5 12.5q-40 15 -66.5 44t-39 60t-17.5 77.5t-4.5 79.5t3 84t2.5 74v228v11q0 19 0.5 26.5t5.5 16t15.5 10.5t30.5 2q8 0 28 0.5t25 0t16.5 -3t14.5 -8.5t6 -16.5
t3 -27.5v-223v-224q0 -20 5 -41.5t16.5 -39t29 -18.5t42.5 19q10 8 14 28.5t3.5 38.5t-2 42.5t-1.5 30.5v250v171q0 11 10.5 17t28 7t34 0.5t34 -2t22.5 -1.5z" />
    <glyph glyph-name="V" unicode="V" horiz-adv-x="500" 
d="M438 727q10 0 11 -19.5t-5 -50.5t-13 -59t-14.5 -54.5t-7.5 -28.5q-60 -254 -89 -381q-4 -15 -9 -39t-7 -33t-7.5 -23t-12 -18.5t-19 -10.5t-29 -7.5t-41.5 -1.5q-17 0 -29.5 12.5t-19 34.5t-10.5 42t-7.5 45t-5.5 34q-67 285 -89 383q-1 6 -6 20.5t-10 29.5t-10 33.5
t-6.5 34t-0.5 29t8 21t20 7.5q4 0 19.5 1.5t31 2t31.5 0t27 -5t12 -12.5q4 -20 11 -59t11 -58q9 -48 26.5 -143t26.5 -143q21 108 61 324q1 3 2 15.5t3 24t5 24.5t9 21t13 8q9 6 32 6t52 -3t36 -3z" />
    <glyph glyph-name="W" unicode="W" horiz-adv-x="701" 
d="M640 728q10 0 10.5 -26t-5 -67t-12.5 -78t-14.5 -72.5t-7.5 -37.5q-23 -134 -69 -404q-5 -31 -39.5 -45t-69 -3t-40.5 42q-12 58 -34 174.5t-34 174.5q-18 -99 -47 -250q-3 -13 -5 -37.5t-5 -38.5t-9.5 -29.5t-20 -23t-34.5 -7.5q-64 0 -77 10t-23 67q-14 76 -49 284
q-8 50 -25 149t-25 148q-9 50 3 60t69 10h6q21 0 35.5 -4t22 -10t11.5 -19t5.5 -23.5t3 -32t3.5 -36.5q5 -40 15 -119.5t15 -119.5q8 38 23.5 114t23.5 114q3 15 6 41t6 39t10.5 28t22.5 21.5t39 6.5q25 0 40 -6.5t23 -22t10.5 -29t6 -40.5t6.5 -42q8 -39 24 -116.5
t24 -116.5q6 48 17.5 144.5t17.5 145.5q0 3 0.5 14t1.5 21.5t3.5 22t7.5 18.5t12 7q9 6 32.5 6t52.5 -3t36 -3z" />
    <glyph glyph-name="X" unicode="X" horiz-adv-x="514" 
d="M305 384q56 -124 83 -185q3 -7 26 -46.5t38 -73t11 -47.5q4 -9 -16 -17q-43 -15 -96 -7q-34 6 -40 21q-13 31 -39.5 93t-39.5 93l-78 -186q-9 -21 -74 -26t-77 14q-8 12 5 45.5t35 73.5t23 43q15 34 44.5 100t44.5 100q5 11 -6 38t-30 60.5t-21 37.5q-28 63 -84 187
q-6 14 23 22q48 14 99 5q23 -4 26 -13q15 -12 28 -43t25 -71.5t17 -52.5q5 13 17.5 53t25.5 71t28 43q8 18 76 15q67 -3 73 -22q1 -3 -1 -6q4 -13 -11.5 -47.5t-39 -74.5t-26.5 -47z" />
    <glyph glyph-name="Y" unicode="Y" horiz-adv-x="499" 
d="M441 732q7 0 8 -12t-4.5 -32.5t-13 -43.5t-18 -49.5t-18.5 -46t-15.5 -37t-8.5 -19.5q-6 -15 -27.5 -62t-32 -81t-10.5 -66q0 -5 1.5 -40t2.5 -71.5t0.5 -75.5t-5.5 -64t-15 -25q-9 -7 -62.5 -5.5t-62.5 10.5q-8 8 -9 30t1.5 51t2.5 32q0 18 1.5 57t1.5 61.5t-4.5 54
t-14.5 56.5l-123 315q-1 2 -5.5 12.5t-6.5 17t-3.5 15.5t3.5 13.5t16 4.5q4 0 20 1.5t32.5 2t34 0.5t30 -4t14.5 -11q19 -16 33.5 -59.5t26.5 -100.5t17 -72q12 35 35.5 106t35.5 107q5 15 16.5 23t28.5 10t32 1.5t35 -2.5t30 -2z" />
    <glyph glyph-name="Z" unicode="Z" horiz-adv-x="435" 
d="M360 727q64 0 -47 -251q-4 -9 -4 -10q-68 -160 -142 -338h183q26 0 32.5 -52t-10.5 -69q-11 -11 -44.5 -12t-76.5 3t-48 4h-178q-68 0 49 267q23 55 69 165.5t69 166.5h-174q-16 0 -22 31.5t0 63t19 31.5q14 9 47.5 9t74.5 -4.5t51 -4.5h152z" />
    <glyph glyph-name="a" unicode="a" horiz-adv-x="533" 
d="M305 716q122 -473 161 -629q1 -2 5.5 -15.5t7 -22t4 -21.5t-3.5 -16q-10 -13 -74 -11.5t-68 17.5q-13 12 -14.5 69t-15.5 67q-8 5 -64 5t-64 -5q-15 -10 -16.5 -67t-14.5 -69q-4 -16 -68 -17.5t-74 11.5q-12 15 -0.5 65.5t33.5 112.5t23 67l99 384q0 1 3 21.5t7 34.5
t9 19q4 16 62.5 16t62.5 -16zM278 279l-36 164q-6 -28 -18 -82.5t-18 -81.5h72z" />
    <glyph glyph-name="b" unicode="b" horiz-adv-x="453" 
d="M343 58q-21 -20 -46 -32t-60 -16.5t-55 -5.5t-64.5 0t-55.5 1q-42 0 -52 8.5t-10 47.5v471v171q0 12 9.5 19t25 8t30.5 0.5t32 -2t22 -1.5q49 0 76 -2t67.5 -10t68.5 -29.5t46 -55.5q20 -38 24 -85t-12 -92t-51 -69q66 -48 64.5 -159t-59.5 -167zM145 325v-127
q0 -11 -0.5 -25t-1 -17.5t3.5 -9t10 -6.5t21 -4q39 0 60 22t22 54t-4 67q-2 9 -6.5 16.5t-9 12.5t-13.5 8.5t-14.5 5t-17.5 2.5t-16.5 1h-18h-15.5zM243 463q43 54 2 104q-28 34 -66 36q-34 2 -34 -30v-125q3 -6 23 -5t45 7.5t30 12.5z" />
    <glyph glyph-name="c" unicode="c" horiz-adv-x="464" 
d="M73 39q-26 19 -42.5 46t-21.5 64.5t-6 64t1 72.5t2 62q0 19 -3 73.5t-3 88.5t9 78t29 71q46 60 130.5 73t148.5 -27q39 -23 76 -88.5t10 -101.5q0 -9 -11 -14t-28 -5.5t-33 -0.5t-32.5 1.5t-19.5 1.5q-12 0 -17.5 11t-6 25.5t-3.5 30t-9 22.5q-72 81 -88 -78
q-4 -37 -4 -135q0 -9 -3 -44.5t-3 -64.5t3.5 -61.5t17 -51.5t37.5 -19q25 0 37 16t13 35.5t5 35.5t16 16q8 5 56.5 5t56.5 -5q36 -9 8 -85.5t-49 -96.5q-54 -48 -134 -52.5t-139 37.5z" />
    <glyph glyph-name="d" unicode="d" horiz-adv-x="460" 
d="M346 54q-24 -20 -54 -32.5t-67.5 -16t-64.5 -4t-72 1t-63 1.5q-10 0 -16 10.5t-7.5 28t-1 33t2 32.5t1.5 21v556q0 20 6.5 31.5t21 15t26.5 4t34.5 -1.5t33.5 -2q54 0 93 -5t82 -20t69.5 -49.5t33.5 -86.5q5 -36 5.5 -77.5t-1.5 -94.5t-2 -78q0 -12 1 -45t0.5 -50.5
t-3 -46.5t-9 -48t-19 -40.5t-30.5 -36.5zM259 201v294q0 2 0.5 18t0 20.5l-2 18t-4.5 19t-8 14t-13 12.5t-19 6q-31 8 -46.5 4.5t-15.5 -31.5v-341v-103q4 -2 28 -1t52 20.5t28 49.5z" />
    <glyph glyph-name="e" unicode="e" horiz-adv-x="428" 
d="M22 10q-8 0 -12.5 9.5t-5.5 24.5t-0.5 28.5t1.5 28t1 16.5v483q0 4 -3 34t-2 53t9 31q10 10 41 11.5t71 -2.5t45 -4q11 0 55.5 4.5t80.5 4.5t51 -9q13 0 18.5 -31t0 -62t-20.5 -31h-200q-3 0 -3 -164q0 -4 174 -4q15 0 21 -31t0.5 -62t-18.5 -31q-18 -12 -90.5 2
t-86.5 -2q-5 -5 -5 -83.5t5 -83.5q11 -10 50 -10t88 5t57 5q27 0 33 -55t-11 -70q-12 -12 -47 -13t-80 3.5t-51 4.5h-166z" />
    <glyph glyph-name="f" unicode="f" horiz-adv-x="425" 
d="M21 4q-9 0 -14 63t-6 161t0 189.5t2.5 178.5t1.5 97q0 17 24 26.5t63 10.5t75.5 0t74 -4t46.5 -3q7 0 23 1t24 1t18.5 -3t15 -11.5t4.5 -22.5q0 -9 0.5 -26.5t0.5 -23.5t-2.5 -16.5t-8.5 -14t-16.5 -6.5t-26.5 -3q-170 0 -170 -3v-170q0 -3 167 -3q25 0 33 -45t-6 -63
q0 -9 -15 -14.5t-39 -6t-46 0t-44.5 2t-25.5 1.5q-13 0 -19.5 -6t-8 -17.5t-1 -22.5t2.5 -26.5t2 -24.5v-178q0 -10 -11 -15t-28.5 -6t-34 -0.5t-34 2t-21.5 1.5z" />
    <glyph glyph-name="g" unicode="g" horiz-adv-x="475" 
d="M75 44q-30 23 -48 61.5t-22 88t-4 90.5t3.5 96.5t3.5 78.5q0 9 -0.5 33t0 37t2 32.5t6 36t11.5 30.5q29 55 88.5 82t124 20t113.5 -44q21 -16 49 -80q42 -94 7 -108q-4 -2 -11 -2q-11 0 -32 -2t-34.5 -2t-28 3t-22 13.5t-7.5 29.5q0 38 -30 54.5t-60 1t-30 -53.5v-186
q0 -16 -3 -53t-3 -66.5t6 -51.5q0 -38 38 -50t66 11q6 5 10 11.5t5 15.5t1.5 15.5t0 17.5t-0.5 15q0 2 0.5 12.5t1 20.5t0 21t-2 17.5t-4.5 6.5q-5 0 -21 -2t-28.5 -2t-18.5 4q-13 0 -19 29.5t0 59.5t22 30h188q13 0 20.5 -8.5t9 -23t1 -28.5t-2 -31t-1.5 -23q0 -13 1.5 -48
t1 -55.5t-5.5 -48.5t-15 -48q-29 -55 -88.5 -82t-124 -20t-113.5 44z" />
    <glyph glyph-name="h" unicode="h" horiz-adv-x="455" 
d="M21 6q-10 0 -15 58t-5.5 148.5t0.5 174.5t2.5 163t1.5 87q0 4 -1 17.5t-1.5 25t1 24t7 20t15.5 7.5q8 0 27.5 2t34 2t30.5 -2t24.5 -10.5t8.5 -24.5v-234q0 -29 44 -39.5t64 9.5q9 8 9 50t-4.5 94t-4.5 58q0 10 -1 27t-1 24.5t2.5 18t8 14.5t16 7.5t27.5 3.5q8 0 29.5 1
t28 0t18 -5t15 -14.5t3.5 -27.5v-189v-453q0 -16 -7 -25.5t-20.5 -12t-25.5 -2.5t-31 1.5t-28 1.5q-16 0 -25 8t-11 23t-2 28.5t2 32.5t2 27q0 3 0.5 26.5t0.5 48.5v52t-1.5 44.5t-4.5 17.5q-15 0 -35.5 2t-30 2.5t-19.5 -3t-14 -15t-4 -31.5v-238q0 -12 -10 -19t-27.5 -8.5
t-33.5 -1t-34.5 2t-24.5 1.5z" />
    <glyph glyph-name="i" unicode="i" horiz-adv-x="206" 
d="M22 3q-10 0 -15 41.5t-5.5 105.5t0.5 124t2.5 115t1.5 60v238q0 34 51.5 45t77.5 -8q10 0 15 -41.5t5.5 -105.5t-0.5 -124t-2.5 -115t-1.5 -60v-238q0 -17 -8.5 -27t-24.5 -12.5t-30.5 -2t-35 2.5t-30.5 2z" />
    <glyph glyph-name="j" unicode="j" horiz-adv-x="416" 
d="M59 23q-56 32 -58 50t44 50q27 19 39.5 21t32 -5.5t44.5 -7.5q22 0 36.5 11t19 33.5t6 38t0 46t-1.5 35.5q0 7 -2 62t-3 112t-0.5 118.5t7.5 101t19 39.5q13 0 32 1.5t30 2t24.5 -1.5t20.5 -7.5t12 -17.5t5 -30v-280v-209q0 -54 -30.5 -98.5t-76.5 -66t-100 -24.5
t-100 26z" />
    <glyph glyph-name="k" unicode="k" horiz-adv-x="518" 
d="M465 9q-6 -10 -29 -12t-55.5 1t-34.5 3q-10 0 -16.5 2t-11.5 8.5t-7 10t-6.5 15t-5.5 14.5q-10 23 -100 239q-22 -35 -31.5 -66t-10.5 -51t-1 -75q0 -27 -0.5 -41.5t-5.5 -27t-8 -17t-18 -8t-24.5 -3.5h-37.5h-18q-20 0 -30.5 29.5t-12 77t0 92t4.5 89.5t3 55
q0 5 -2 53.5t-3 100t0 106.5t7.5 90t19.5 35q14 0 36 1t32 1.5t23.5 -2t19 -9.5t10 -20.5t4.5 -34.5v-207q2 3 36 82t65.5 134t51.5 55q17 8 74 3q59 -5 55 -25l-2 -4q-25 -44 -75 -134q-5 -9 -26 -38.5t-35 -55t-14 -41.5q-1 -14 8.5 -35.5t25 -49.5t18.5 -33
q30 -70 92 -208l14 -26q14 -25 20.5 -44.5t0.5 -28.5z" />
    <glyph glyph-name="l" unicode="l" horiz-adv-x="433" 
d="M22 2q-10 0 -15 56t-6 143t0 168t2.5 157t1.5 83q0 13 -0.5 34.5t-0.5 29t1.5 21t5 17.5t10 11t17.5 8.5t25.5 3t36.5 1.5q25 0 39 -11.5t17.5 -33.5t3 -42t-3.5 -49.5t-3 -44.5v-371q0 -7 -1 -17t-1 -14t2 -8.5t7 -6t15 -1.5h167q16 0 25.5 -5.5t12 -17t3 -21t-1 -27
t-1.5 -26.5q0 -7 -0.5 -12t-2.5 -9t-3 -7t-5.5 -4.5t-6 -2.5t-8 -1.5t-8 -0.5h-10h-10.5h-304z" />
    <glyph glyph-name="m" unicode="m" horiz-adv-x="604" 
d="M533 734q10 0 15 -61.5t5.5 -158t-0.5 -186t-2.5 -173.5t-1.5 -94v-12.5v-12.5t-1 -10t-3 -9.5t-5.5 -6t-10 -4.5t-14.5 -1q-5 0 -21.5 -1.5t-30.5 -2t-29 0.5t-23.5 7.5t-8.5 18.5v332q-5 -14 -14.5 -47.5t-18.5 -61.5t-22 -58t-31.5 -47t-40.5 -17t-40.5 17t-31.5 46.5
t-22 57.5t-18 62t-14 47v-244q0 -71 -4 -83q-8 -22 -49 -26q-15 -1 -42 -1q-17 0 -27.5 3.5t-16 7.5t-8 14.5t-2.5 18t1 24t1 26.5v292v275q0 49 13 58.5t64 9.5h14q26 0 44.5 -16t26 -33t18 -51.5t15.5 -46.5q13 -33 39 -98.5t39 -98.5q19 48 53.5 134.5t46.5 118.5
q8 21 15 34t12 24t15 16.5t15.5 9.5t22 5t25.5 1.5t35 0.5h18z" />
    <glyph glyph-name="n" unicode="n" horiz-adv-x="489" 
d="M417 730q10 0 15 -62.5t6 -160.5t0 -188.5t-2.5 -176.5t-1.5 -96q0 -38 -33 -50t-70.5 2.5t-49.5 44.5l-132 315v-253v-17v-35t-3.5 -23t-8 -16.5t-16.5 -8t-26.5 -5t-40.5 -0.5q-17 0 -27.5 3.5t-16 7.5t-8 14.5t-2.5 18t1 24t1 26.5v293v275q0 49 12.5 58.5t62.5 9.5
h16q21 0 36.5 -8.5t26 -25.5t16.5 -32.5t14 -40t13 -37.5q46 -114 88 -215v272q0 2 -1 14t-1.5 23t0.5 23t5.5 19.5t12.5 7.5q9 6 31 6t49 -3t34 -3z" />
    <glyph glyph-name="o" unicode="o" horiz-adv-x="476" 
d="M351 688q30 -23 48 -61.5t22 -87.5t4 -90t-3.5 -96t-3.5 -78q0 -6 0.5 -40t0 -48t-5.5 -38.5t-14 -42.5q-29 -55 -88 -81.5t-123.5 -19.5t-112.5 44q-30 23 -48 61.5t-22 87.5t-4 90t3.5 96t3.5 78q0 9 -0.5 33t0 37t2 32.5t6 35.5t11.5 30q28 55 87.5 82t124 20
t112.5 -44zM273 550q0 34 -30 47.5t-60 -1t-30 -48.5v-105q0 -24 -4.5 -79t-4.5 -99.5t9 -76.5q0 -21 12.5 -34.5t30 -17t35 0t30 17.5t12.5 35v106v255z" />
    <glyph glyph-name="p" unicode="p" horiz-adv-x="463" 
d="M350 680q39 -36 54 -97t6 -120.5t-43.5 -109.5t-87.5 -67q-7 -3 -40.5 -5.5t-61.5 -6t-28 -9.5v-120v-126q0 -8 -5.5 -13t-15.5 -6t-19 -1t-20 1t-14 1q-55 0 -64.5 12t-9.5 69v570v19v16.5t0.5 12.5t2 11.5t4.5 8t7.5 6.5t11.5 3.5t15.5 3t20.5 0.5q14 0 57 1.5
t65.5 0.5t56.5 -5.5t60.5 -17t47.5 -32.5zM264 456q1 34 2.5 67t-17 58t-57.5 25q-14 1 -22 -0.5t-13.5 -2.5t-7 -7t-1.5 -10.5t0.5 -17.5t0.5 -22v-142q4 -4 29 -4t54.5 15.5t31.5 40.5z" />
    <glyph glyph-name="q" unicode="q" horiz-adv-x="529" 
d="M473 75q5 -4 6 -9.5t-3 -12.5t-9 -14t-12.5 -14.5t-13.5 -13t-12 -10.5t-8 -7q-7 -7 -15 -7.5t-17 4t-16 10t-16 13t-13 10.5t-23 -2.5t-41 -14t-28 -9.5q-56 -6 -107 10q-44 14 -78 44.5t-47 72.5q-17 55 -19 127t4.5 165t6.5 130q0 57 31 101t78 65t102.5 21t103.5 -25
q60 -31 79.5 -83t19.5 -130v-261q0 -70 -3 -87q-2 -10 -2.5 -17.5t1.5 -13t4 -9t7.5 -8t10.5 -7t13.5 -8t15.5 -10.5zM180 163q5 5 16.5 19t19.5 21.5t19 15t22 6t22 -12.5v243q0 9 2 29t2 36.5t-4 28.5q0 27 -24.5 43t-53.5 11t-39 -30q-12 -29 -13 -71.5t4 -96t5 -72.5
q0 -7 -2.5 -45.5t-2.5 -64t8.5 -53.5t27.5 -36q-9 4 -12 12t3 17z" />
    <glyph glyph-name="r" unicode="r" horiz-adv-x="498" 
d="M329 330q78 -200 117 -301q4 -11 -6 -17t-29.5 -7.5t-37 -1.5t-37 1t-21.5 1q-12 0 -23 17t-17 35.5t-12.5 42.5t-7.5 28q-10 28 -30.5 85t-30.5 86q-2 6 -21.5 5t-19.5 -11v-71v-192q0 -12 -9.5 -19t-26.5 -8.5t-32 -1t-33 2t-24 1.5q-12 0 -19 61t-7.5 156t0.5 184
t3 173.5t2 95.5q0 3 -0.5 12.5t0 13.5t1.5 11t4 10.5t9 6t14 2.5h171q75 0 131.5 -34t75.5 -103q12 -50 10.5 -99t-26 -94.5t-68.5 -70.5zM153 605v-123q0 -9 -0.5 -22t-0.5 -17t1.5 -10t6.5 -7.5t12.5 -2.5t21.5 -1q52 0 69 29.5t13 85.5q-1 21 -9 35t-20 20.5t-27.5 10
t-32 3t-34.5 -0.5z" />
    <glyph glyph-name="s" unicode="s" horiz-adv-x="481" 
d="M366 680q28 -25 53.5 -88t-1.5 -90q-8 -8 -31 -9t-53.5 2t-35.5 3q-15 0 -21 16.5t-7.5 36t-15 36t-40.5 16.5q-41 0 -55.5 -32t0.5 -68.5t48 -48.5q14 -6 69.5 -24.5t81.5 -37.5q88 -63 60 -230q-10 -62 -56.5 -104t-104 -53.5t-119 7t-99.5 67.5q-16 21 -32 77
q-21 79 17 79q5 0 35.5 3t53 1.5t31.5 -9.5q12 -12 15.5 -33t4 -36t17 -23.5t53.5 -2.5q36 5 45.5 63t-11.5 85q-11 16 -40 28t-65.5 22t-49.5 16q-104 49 -104 180q0 66 37 117.5t90.5 73t117 13t112.5 -52.5z" />
    <glyph glyph-name="t" unicode="t" horiz-adv-x="470" 
d="M398 732q18 0 21 -55t-10 -66q-6 -6 -39 -6t-58 2t-30 -2v-292v-201q0 -5 2.5 -27t2.5 -39.5t-5 -24.5q0 -17 -60 -21t-70 4q-7 0 -11 5t-5.5 14t-1.5 16.5t1 17t1 11.5v393v135q0 6 -8 9.5t-21 3.5t-26 -0.5t-26 -1.5t-17 -1q-15 0 -24 6.5t-11 19.5t-2 24.5t1.5 29
t1.5 25.5q0 10 6.5 15.5t17.5 6.5t20.5 1t22.5 -1t17 -1h310z" />
    <glyph glyph-name="u" unicode="u" horiz-adv-x="459" 
d="M387 729q10 0 15 -35t6 -89.5t0 -105t-2.5 -98t-1.5 -51.5v-167q0 -50 -26 -91t-67 -61.5t-89.5 -27t-93.5 12.5q-40 15 -66.5 44t-39 60t-17.5 77.5t-4.5 79.5t3 84t2.5 74v228v11q0 19 0.5 26.5t5.5 16t15.5 10.5t30.5 2q8 0 28 0.5t25 0t16.5 -3t14.5 -8.5t6 -16.5
t3 -27.5v-223v-224q0 -20 5 -41.5t16.5 -39t29 -18.5t42.5 19q10 8 14 28.5t3.5 38.5t-2 42.5t-1.5 30.5v250v171q0 11 10.5 17t28 7t34 0.5t34 -2t22.5 -1.5z" />
    <glyph glyph-name="v" unicode="v" horiz-adv-x="500" 
d="M438 727q10 0 11 -19.5t-5 -50.5t-13 -59t-14.5 -54.5t-7.5 -28.5q-60 -254 -89 -381q-4 -15 -9 -39t-7 -33t-7.5 -23t-12 -18.5t-19 -10.5t-29 -7.5t-41.5 -1.5q-17 0 -29.5 12.5t-19 34.5t-10.5 42t-7.5 45t-5.5 34q-67 285 -89 383q-1 6 -6 20.5t-10 29.5t-10 33.5
t-6.5 34t-0.5 29t8 21t20 7.5q4 0 19.5 1.5t31 2t31.5 0t27 -5t12 -12.5q4 -20 11 -59t11 -58q9 -48 26.5 -143t26.5 -143q21 108 61 324q1 3 2 15.5t3 24t5 24.5t9 21t13 8q9 6 32 6t52 -3t36 -3z" />
    <glyph glyph-name="w" unicode="w" horiz-adv-x="701" 
d="M640 728q10 0 10.5 -26t-5 -67t-12.5 -78t-14.5 -72.5t-7.5 -37.5q-23 -134 -69 -404q-5 -31 -39.5 -45t-69 -3t-40.5 42q-12 58 -34 174.5t-34 174.5q-18 -99 -47 -250q-3 -13 -5 -37.5t-5 -38.5t-9.5 -29.5t-20 -23t-34.5 -7.5q-64 0 -77 10t-23 67q-14 76 -49 284
q-8 50 -25 149t-25 148q-9 50 3 60t69 10h6q21 0 35.5 -4t22 -10t11.5 -19t5.5 -23.5t3 -32t3.5 -36.5q5 -40 15 -119.5t15 -119.5q8 38 23.5 114t23.5 114q3 15 6 41t6 39t10.5 28t22.5 21.5t39 6.5q25 0 40 -6.5t23 -22t10.5 -29t6 -40.5t6.5 -42q8 -39 24 -116.5
t24 -116.5q6 48 17.5 144.5t17.5 145.5q0 3 0.5 14t1.5 21.5t3.5 22t7.5 18.5t12 7q9 6 32.5 6t52.5 -3t36 -3z" />
    <glyph glyph-name="x" unicode="x" horiz-adv-x="514" 
d="M305 384q56 -124 83 -185q3 -7 26 -46.5t38 -73t11 -47.5q4 -9 -16 -17q-43 -15 -96 -7q-34 6 -40 21q-13 31 -39.5 93t-39.5 93l-78 -186q-9 -21 -74 -26t-77 14q-8 12 5 45.5t35 73.5t23 43q15 34 44.5 100t44.5 100q5 11 -6 38t-30 60.5t-21 37.5q-28 63 -84 187
q-6 14 23 22q48 14 99 5q23 -4 26 -13q15 -12 28 -43t25 -71.5t17 -52.5q5 13 17.5 53t25.5 71t28 43q8 18 76 15q67 -3 73 -22q1 -3 -1 -6q4 -13 -11.5 -47.5t-39 -74.5t-26.5 -47z" />
    <glyph glyph-name="y" unicode="y" horiz-adv-x="499" 
d="M441 732q7 0 8 -12t-4.5 -32.5t-13 -43.5t-18 -49.5t-18.5 -46t-15.5 -37t-8.5 -19.5q-6 -15 -27.5 -62t-32 -81t-10.5 -66q0 -5 1.5 -40t2.5 -71.5t0.5 -75.5t-5.5 -64t-15 -25q-9 -7 -62.5 -5.5t-62.5 10.5q-8 8 -9 30t1.5 51t2.5 32q0 18 1.5 57t1.5 61.5t-4.5 54
t-14.5 56.5l-123 315q-1 2 -5.5 12.5t-6.5 17t-3.5 15.5t3.5 13.5t16 4.5q4 0 20 1.5t32.5 2t34 0.5t30 -4t14.5 -11q19 -16 33.5 -59.5t26.5 -100.5t17 -72q12 35 35.5 106t35.5 107q5 15 16.5 23t28.5 10t32 1.5t35 -2.5t30 -2z" />
    <glyph glyph-name="z" unicode="z" horiz-adv-x="390" 
d="M360 727q64 0 -47 -251q-4 -9 -4 -10q-68 -160 -142 -338h183q26 0 32.5 -52t-10.5 -69q-11 -11 -44.5 -12t-76.5 3t-48 4h-178q-68 0 49 267q23 55 69 165.5t69 166.5h-174q-16 0 -22 31.5t0 63t19 31.5q14 9 47.5 9t74.5 -4.5t51 -4.5h152z" />
    <glyph glyph-name="braceleft" unicode="{" horiz-adv-x="273" 
d="M216 78q7 0 12 -5t5 -12v-47q0 -7 -5 -12t-12 -5h-19q-68 0 -104.5 34.5t-36.5 99.5q0 27 7 73q7 42 7 67q0 21 -10.5 34t-42.5 13q-7 0 -12 5t-5 12v43q0 6 5 13q7 5 12 5q34 0 45 14q8 11 8 32q0 26 -7 70v2q-7 42 -7 71q0 64 41 99q37 31 100 31h18q7 0 12.5 -5
t5.5 -12v-48q0 -7 -5.5 -12t-12.5 -5h-15q-28 0 -40 -13q-11 -14 -11 -43q0 -23 6 -59q6 -40 6 -67q1 -65 -39 -94q40 -30 39 -95q0 -30 -6 -67q-6 -44 -6 -59q0 -31 12 -44.5t39 -13.5h16zM197 14z" />
    <glyph glyph-name="braceright" unicode="}" horiz-adv-x="272" 
d="M215 396q7 0 12 -5t5 -12v-44q0 -7 -5 -12t-12 -5q-32 0 -44 -15q-8 -9 -8 -31q0 -23 6 -67q7 -51 7 -73q0 -65 -36.5 -100t-104.5 -35h-18q-7 0 -12 5t-5 12v47q0 17 17 17h14q28 1 40 14.5t12 43.5q0 13 -4 45q-1 3 -1 8t-1 7q-7 42 -7 67q0 65 41 94q-41 29 -41 94
q0 30 7 65l2 15q4 32 4 46q0 31 -11.5 43.5t-39.5 13.5h-15q-17 0 -17 17v47q0 7 5 12t12 5h17q68 0 105 -34t37 -95q0 -25 -6 -71l-1 -3q-6 -48 -6 -70q0 -14 2.5 -23t14.5 -16t35 -7z" />
    <glyph glyph-name="Euro" unicode="&#x20ac;" horiz-adv-x="600" 
d="M500 150q19 0 28 -15.5t20 -56.5q4 -15 -5 -27q-19 -25 -81 -38t-90 -13q-79 0 -147 37.5t-109 103.5q-33 52 -46 126q-1 0 -3 0.5t-4 0.5t-6 -0.5t-7 -0.5q-5 -1 -16 -1q-14 0 -22 6h-1q-8 8 -10 34t2 36q1 25 27 25h9h9q11 0 13 7h-11q-24 0 -36 13q-11 13 -11 40
q0 34 14 43.5t46 9.5h7q2 3 6 10t10 18.5t10 19.5q50 98 65 113q80 83 191 92q9 1 28 1q82 0 147 -36q10 -5 12 -18q4 -18 -3 -45t-16 -37q-6 -11 -29 -11q-20 0 -76 12q-51 10 -61 9q-46 -7 -81 -41t-51 -87h157q21 0 31 1h24q33 0 48 -14.5t15 -56.5q0 -38 -61 -40
q61 -9 61 -37q0 -42 -15 -56t-47 -14q-14 0 -22 1h-29h-168q17 -63 61.5 -99.5t105.5 -36.5q32 0 57 8l8 2q41 12 52 12zM238 370q60 4 106 4q-3 1 -9 1q-58 6 -79 6q-44 0 -51 -13q7 0 33 2z" />
  </font>
</defs>
</svg>
